Bumblebee (2018) Hindi Dubbed Movie 720p

Bumblebee (2018) Hindi Dubbed Movie 720p.mkv

IMDB Link

General
Complete name : Bumblebee (2018) Hindi Dubbed Movie.mp4
Format : MPEG-4
Format profile : Base Media / Version 2
Codec ID : mp42 (mp42)
File size : 665 MiB
Duration : 2 h 25 min
Overall bit rate mode : Constant
Overall bit rate : 637 kb/s
Codirector : codirector
Production studio : studio
ContentType : Unknown Type
Encoded date : UTC 2019-03-19 13:53:14
Tagged date : UTC 2019-03-19 13:53:14

Video
Format : MPEG-4 Visual
Format settings, BVOP : Yes
Format settings, QPel : No
Format settings, GMC : No warppoints
Format settings, Matrix : Default (H.263)
Codec ID : 20
Duration : 2 h 25 min
Bit rate mode : Constant
Bit rate : 512 kb/s
Width : 640 pixels
Height : 480 pixels
Display aspect ratio : 4:3
Frame rate mode : Constant
Frame rate : 25.000 FPS
Color space : YUV
Bit depth : 8 bits
Scan type : Progressive
Compression mode : Lossy
Bits/(Pixel*Frame) : 0.067
Stream size : 534 MiB (80%)

Audio
Format : AAC
Format/Info : Advanced Audio Codec
Format profile : LC
Codec ID : 40
Duration : 2 h 25 min
Bit rate mode : Constant
Bit rate : 121 kb/s
Channel(s) : 2 channels
Channel positions : Front: L R
Sampling rate : 44.1 kHz
Frame rate : 43.066 FPS (1024 SPF)
Compression mode : Lossy
Stream size : 126 MiB (19%)
Title : Stereo
Language : English
Default : Yes








indishare Link

TheFilesLocker Link

MegaUp Link

OpenLoad Link

UserscLoud Link

ClicknupLoad Link

BDupload Link

UpPom Link

UploadBuzz Link

The post Bumblebee (2018) Hindi Dubbed Movie 720p appeared first on 7StarHD.Com.

Leave a Reply

Your email address will not be published. Required fields are marked *