The Tashkent Files (2019) New Hindi Movie 720p

The Tashkent Files (2019) New Hindi Movie 720p.mkv

IMDB Link

General
Complete name : The Tashkent Files (2019) New Hindi Movie.mp4
Format : MPEG-4
Format profile : Base Media / Version 2
Codec ID : mp42 (mp42)
File size : 766 MiB
Duration : 2 h 30 min
Overall bit rate mode : Constant
Overall bit rate : 710 kb/s
Codirector : codirector
Production studio : studio

Video
Format : MPEG-4 Visual
Format settings, BVOP : Yes
Format settings, QPel : No
Format settings, GMC : No warppoints
Format settings, Matrix : Default (H.263)
Codec ID : 20
Duration : 2 h 30 min
Bit rate mode : Constant
Bit rate : 512 kb/s
Width : 640 pixels
Height : 350 pixels
Display aspect ratio : 1.85:1
Frame rate mode : Constant
Frame rate : 25.000 FPS
Color space : YUV
Bit depth : 8 bits
Scan type : Progressive
Compression mode : Lossy
Bits/(Pixel*Frame) : 0.091
Stream size : 553 MiB (72%)

Audio
Format : AAC
Format/Info : Advanced Audio Codec
Format profile : LC
Codec ID : 40
Duration : 2 h 30 min
Bit rate mode : Constant
Bit rate : 192 kb/s
Channel(s) : 2 channels
Channel positions : Front: L R
Sampling rate : 48.0 kHz
Frame rate : 46.875 FPS (1024 SPF)
Compression mode : Lossy
Stream size : 207 MiB (27%)
Title : Stereo
Language : English
Default : Yes








indishare Link

TheFilesLocker Link

MegaUp Link

OpenLoad Link

UserscLoud Link

ClicknupLoad Link

BDupload Link

UpPom Link

UploadBuzz Link

The post The Tashkent Files (2019) New Hindi Movie 720p appeared first on 7StarHD.Com.

Leave a Reply

Your email address will not be published. Required fields are marked *